extratorrent - A Fan Made Alternative Login   |   Register
Important Information
Registrations are open now
-------------------------------------

Please click here to register with Extratorrent2 to recieve latest updates, add bookmarks and to post comments.

Friends
Friends

1) ProxyFix

Extratorrent2 > Categories > Movies > Maraviglioso Boccaccio - Wondrous Boccaccio (2015).H264.Italian.Ac3.5.1.sub.Eng.iCV-MIRCrew torrent


Browse Movies torrents

Maraviglioso Boccaccio - Wondrous Boccaccio (2015).H264.Italian.Ac3.5.1.sub.Eng.iCV-MIRCrew torrent


Download torrent: Download Maraviglioso Boccaccio - Wondrous Boccaccio (2015).H264.Italian.Ac3.5.1.sub.Eng.iCV-MIRCrew torrent Magnet link Bookmark Torrent: Maraviglioso Boccaccio - Wondrous Boccaccio (2015).H264.Italian.Ac3.5.1.sub.Eng.iCV-MIRCrew   Maraviglioso Boccaccio - Wondrous Boccaccio (2015).H264.Italian.Ac3.5.1.sub.Eng.iCV-MIRCrew torrent
Info hash: E7596DAAA326B34B6AAA3F02C84CED54AFD3E37C
Category: Categories > Movies
Trackers:
View all torrent trackers >
Health:
 seeds: 2 ,  leechers: 1 |  Update >
Torrent language: Italian Italian
Total Size: 1.4 GB
Files List:
2    View torrent files >
Uploader:
robbyrs
Torrent added: September 25, 2016, 8:08 pm
Users rating: ---, not rated. please login to rate.

Download Maraviglioso Boccaccio - Wondrous Boccaccio (2015).H264.Italian.Ac3.5.1.sub.Eng.iCV-MIRCrew torrent



Torrent Description

Maraviglioso Boccaccio - Wondrous Boccaccio (2015).H264.Italian.Ac3.5.1.sub.Eng.iCV-MIRCrew




NO FOUND ONLY ORIGINAL RELEASE



My release is always in double track audio italian and Original audio
for select it use VLC or dvd player home
not use wmp

Maraviglioso Boccaccio (2015)

ENGLISH SUBTITLE INSIDE







Riconoscimenti

2015 - David di Donatello
Nomination Migliore scenografia a Emita Frigato
Nomination Migliori costumi a Lina Nerli Taviani
Nomination Migliori acconciature a Carlo Barucci
2015 - Nastro d'argento
Miglior casting director a Francesco Vedovati
Nomination Migliori costumi a Lina Nerli Taviani
Nomination Migliore colonna sonora a Giuliano Taviani e Carmelo Travi
2015 - Globo d'oro
Nomination Miglior fotografia a Simone Zampagni
2015 - Ciak d'oro
Nomination Migliore scenografia a Emita Frigato
Nomination Migliori costumi a Lina Nerli Taviani
Nomination Miglior sonoro in presa diretta a Benito Alchimede e Maurizio Grassi

Paese di produzione Italia
Anno 2015
Durata 120 minuti
Genere drammatico
Regia Paolo e Vittorio Taviani
Soggetto Giovanni Boccaccio
Sceneggiatura Paolo e Vittorio Taviani
Produttore Luigi Musini e Donatella Palermo
Fotografia Simone Zampagni
Montaggio Roberto Perpignani
Musiche Giuliano Taviani e Carmelo Travia
Scenografia Emita Frigato
Costumi Lina Nerli Taviani




Lello Arena: Duca Tancredi di Salerno
Kasia Smutniak: Ghismunda
Michele Riondino: Guiscardo
Carolina Crescentini: Isabetta
Paola Cortellesi: Badessa Usimbalda
Riccardo Scamarcio: Gentile Carisendi
Vittoria Puccini: Monna Catalina
Flavio Parenti: Niccoluccio Caccianemico
Kim Rossi Stuart: Calandrino
Josafath Vagni: Federigo degli Alberighi
Jasmine Trinca: Monna Giovanna
Rosabell Laurenti Sellers: Filomena
Melissa Anna Bartolini: Elissa
Eugenia Costantini: Neifile
Miriam Dalmazio: Fiammetta
Camilla Diana: Lauretta
Barbara Giordano: Pampinea
Nicolò Diana: Filostrato
Moisé Curia: Panfilo
Fabrizio Falco: Dioneo
Rocco Di Gregorio: Ricciardo
Beatrice Fedi: Elisabetta
Ilaria Giachi: Emilia



Lo sfondo è quello della Firenze trecentesca colpita dalla peste, che spinge dieci giovani a rifugiarsi in campagna e a impiegare il tempo raccontandosi delle brevi storie. Drammatiche o argute, erotiche o grottesche, tutte le novelle hanno in realtà un unico, grande protagonista: l’amore, nelle sue innumerevoli sfumature. Sarà proprio l’amore a diventare per tutti il migliore antidoto contro le sofferenze e le incertezze di un’epoca.



Florence, Thirteenth Century. The "Black Death" is spreading. Ten kids (three boys and seven girls) decide to escape and to seek shelter in the countryside, away from the horrible consequences of the plague. In order to kill time, each kid tells a particular story, but no matter how different their stories may be, they all have one aspect in common: love. A love that will help the characters cope with the numerous uncertainties of a very arduous age.










[spoiler]
General
Unique ID : 135711933840767936188277500820064629052 (0x66192AEFA9AA6321890BFDAB5244F13C)
Complete name : Maraviglioso Boccaccio (2015).H264.Ac3.5.1.ita.sub.Eng.iCV-MIRCrew.mkv
Format : Matroska
Format version : Version 2
File size : 1.44 GiB
Duration : 2h 0mn
Overall bit rate : 1 707 Kbps
Movie name : Visitate www.icv-crew.org
Encoded date : UTC 2016-08-19 19:34:09
Writing application : Lavf54.63.100
Writing library : Lavf54.63.100

Video
ID : 1
Format : AVC
Format/Info : Advanced Video Codec
Format profile :
Format settings, CABAC : Yes
Format settings, ReFrames : 2 frames
Codec ID : V_MPEG4/ISO/AVC
Duration : 2h 0mn
Bit rate : 1 250 Kbps
Width : 720 pixels
Height : 388 pixels
Display aspect ratio : 1.856
Frame rate mode : Variable
Frame rate : 23.976 fps
Color space : YUV
Chroma subsampling : 4:2:0
Bit depth : 8 bits
Scan type : Progressive
Bits/(Pixel*Frame) : 0.187
Stream size : 1.03 GiB (72%)
Writing library : x264 core 130 r2273
Encoding settings : cabac=1 / ref=2 / deblock=1:0:0 / analyse=0x1:0x131 / me=hex / subme=7 / psy=1 / psy_rd=1.00:0.00 / mixed_ref=0 / me_range=16 / chroma_me=1 / trellis=1 / 8x8dct=0 / cqm=0 / deadzone=21,11 / fast_pskip=1 / chroma_qp_offset=-2 / threads=12 / lookahead_threads=2 / sliced_threads=0 / nr=0 / decimate=1 / interlaced=0 / bluray_compat=0 / constrained_intra=0 / bframes=3 / b_pyramid=0 / b_adapt=1 / b_bias=0 / direct=3 / weightb=1 / open_gop=0 / weightp=2 / keyint=230 / keyint_min=23 / scenecut=40 / intra_refresh=0 / rc_lookahead=40 / rc=abr / mbtree=1 / bitrate=1250 / ratetol=1.0 / qcomp=0.60 / qpmin=10 / qpmax=69 / qpstep=4 / vbv_maxrate=24000 / vbv_bufsize=24000 / nal_hrd=none / ip_ratio=1.40 / aq=1:1.00
Language : Italian
Default : Yes
Forced : No
DURATION : 02:00:50.035000000
NUMBER_OF_FRAMES : 173827
NUMBER_OF_BYTES : 9236749516
_STATISTICS_WRITING_APP : mkvmerge v7.2.0 ('On Every Street') 64bit built on Sep 13 2014 15:52:10
_STATISTICS_WRITING_DATE_UTC : 2016-08-16 15:10:21
_STATISTICS_TAGS : BPS DURATION NUMBER_OF_FRAMES NUMBER_OF_BYTES

Audio
ID : 2
Format : AC-3
Format/Info : Audio Coding 3
Mode extension : CM (complete main)
Codec ID : A_AC3
Duration : 2h 0mn
Bit rate mode : Constant
Bit rate : 448 Kbps
Channel(s) : 6 channels
Channel positions : Front: L C R, Side: L R, LFE
Sampling rate : 48.0 KHz
Bit depth : 16 bits
Compression mode : Lossy
Delay relative to video : 37ms
Stream size : 387 MiB (26%)
Title : AC3 iTA
Language : Italian
Default : Yes
Forced : Yes
DURATION : 02:00:50.048000000
NUMBER_OF_FRAMES : 226564
NUMBER_OF_BYTES : 580003840
_STATISTICS_WRITING_APP : mkvmerge v7.2.0 ('On Every Street') 64bit built on Sep 13 2014 15:52:10
_STATISTICS_WRITING_DATE_UTC : 2016-08-16 15:10:21
_STATISTICS_TAGS : BPS DURATION NUMBER_OF_FRAMES NUMBER_OF_BYTES

Menu
00:00:00.000 : :00:00:00.000
00:01:52.154 : :00:01:52.154
00:06:38.648 : :00:06:38.648
00:12:29.624 : :00:12:29.624
00:18:21.475 : :00:18:21.475
00:39:35.832 : :00:39:35.832
00:55:05.928 : :00:55:05.928
00:58:33.677 : :00:58:33.677
01:20:05.926 : :01:20:05.926
01:31:55.176 : :01:31:55.176
01:50:59.820 : :01:50:59.820
01:57:22.744 : :01:57:22.744



[/spoiler]




Download Maraviglioso Boccaccio - Wondrous Boccaccio (2015).H264.Italian.Ac3.5.1.sub.Eng.iCV-MIRCrew torrent




Comments   (please login to add your comment!)

sadie 2018     khel 1992     kala hindi     the blue     boys xxx     blacksonblondes alexa     dorcel 1987     nubilefilms     shimmer     familystrokes 2018     hindi 2008     animated xxx     764     the breadwinner     miss missa     hindi 1     the blacklist seasons 3     wicked web     the big bang theory     hindi bdrip     busted lisa ann     day with a     ux design     hindi 2001     


Home - Browse Torrents

Made with love by an Extratorrent Fan!